<?xml version="1.0" standalone="no"?>
<!DOCTYPE svg PUBLIC "-//W3C//DTD SVG 1.1//EN" "http://www.w3.org/Graphics/SVG/1.1/DTD/svg11.dtd">
<svg xmlns="http://www.w3.org/2000/svg">
<metadata>Copyright (C) 2020 by original authors @ fontello.com</metadata>
<defs>
<font id="fontello" horiz-adv-x="1000" >
<font-face font-family="fontello" font-weight="400" font-stretch="normal" units-per-em="1000" ascent="850" descent="-150" />
<missing-glyph horiz-adv-x="1000" />
<glyph glyph-name="arrow-link-top" unicode="&#xe800;" d="M337 834l263-263-74-74-173 174v-821h-106v821l-173-174-74 74 263 263c21 21 53 21 74 0z" horiz-adv-x="600" />

<glyph glyph-name="currency_dollar" unicode="&#xe801;" d="M818 155c0-46-9-87-32-123-22-32-50-59-86-82-36-18-77-32-123-36v-32c0-9-4-18-9-23-4-5-13-9-22-9-10 0-19 4-23 9-5 5-9 14-9 23v32c-64 4-123 18-173 45-50 27-86 64-105 109-9 9-9 18-9 23 0 9 5 18 9 27 10 9 19 14 32 18 0 0 5 0 9 0 9 0 19-4 28-9 13-4 22-13 27-27 9-23 32-45 64-59 31-18 68-27 113-27v295c-77 14-136 37-182 77-45 41-68 96-68 155 0 64 23 114 68 150 46 41 105 64 178 68v59c0 9 4 18 9 23 9 5 18 9 27 9 9 0 18-4 23-9 4-5 9-14 9-23v-50c54-4 100-18 132-45 36-23 68-59 91-100 9-14 13-27 13-37 0-18-9-27-23-36-9-4-18-9-27-9-9 0-18 5-27 9-9 5-14 14-23 23-13 27-36 50-59 68-14 9-41 23-77 27v-272c77-10 136-37 177-78 46-45 68-100 68-163z m-450 386c0-32 9-59 32-86 23-23 59-41 109-55v268c-41-4-77-18-104-41-28-22-37-50-37-86z m205-527c41 4 73 22 95 45 28 23 37 55 37 91 0 36-9 64-32 91-23 27-55 45-100 55v-282z" horiz-adv-x="1000" />

<glyph glyph-name="currency_euro" unicode="&#xe802;" d="M782 105c14 9 23 13 32 13 13 0 22-4 32-13 9-9 13-23 13-37 0-13-4-27-18-36-73-59-159-91-250-91-59 0-114 13-164 36-50 23-91 55-127 100-36 41-64 91-82 146h-77c-14 0-27 4-36 13-9 5-14 19-14 32 0 14 5 23 14 32 9 9 22 14 36 14h64c0 18 0 32 0 41 0 18 0 36 4 54h-68c-14 0-27 5-36 14-9 4-14 13-14 27 0 14 5 23 14 32 9 9 22 14 36 14h82c18 54 45 100 82 136 36 41 81 73 131 95 50 23 100 32 160 32 50 0 95-4 131-18 37-14 78-36 114-68 9-5 14-14 18-18 5-9 5-19 5-28 0-13-5-22-14-31-9-10-23-14-32-14-13 0-22 4-36 14-27 22-55 40-82 50-27 9-59 18-104 18-55 0-110-14-155-46-45-32-82-72-105-122h346c14 0 27-5 36-14 9-9 14-18 14-32 0-14-5-23-14-32-9-9-18-13-36-13h-377c-5-23-5-41-5-55 0-9 0-23 0-41h264c13 0 27-4 36-13 9-10 14-19 14-32 0-14-5-28-14-32-9-9-18-14-36-14h-237c23-50 59-95 105-132 50-31 100-50 159-50 68 0 132 23 191 69z" horiz-adv-x="1000" />

<glyph glyph-name="currency_rub" unicode="&#xe803;" d="M382 255v-100h127c14 0 27-5 37-14 9-9 13-18 13-27 0-9-4-23-13-28-10-9-23-9-37-9h-127v-86c0-14-5-27-14-37-9-9-22-13-36-13-14 0-27 4-36 13-10 10-14 23-14 37v86h-50c-14 0-27 5-36 9-10 10-14 19-14 32 0 9 4 18 14 28 9 9 22 13 36 13h50v100h-50c-14 0-27 5-36 14-10 4-14 13-14 27 0 14 4 27 14 36 9 10 22 14 36 14h50v359c0 14 4 27 14 37 9 9 22 13 36 13h200c50 0 91-9 132-32 41-22 68-50 91-91 22-40 31-81 31-131 0-50-9-91-31-128-23-36-50-68-91-86-37-23-82-32-132-32h-150z m0 95h145c46 0 82 14 109 41 28 27 46 68 46 109 0 46-14 86-46 114-27 32-68 45-109 45h-145v-309z" horiz-adv-x="1000" />

<glyph glyph-name="fb_icon" unicode="&#xe804;" d="M156 800c38 33 94 50 144 50 56 0 111 0 167 0 0-61 0-117 0-178-34 0-73 0-106 0-22 0-44-16-50-39 0-39 0-77 0-116 50 0 106 0 156 0-6-56-11-111-23-167-44 0-88 0-138 0 0-167 0-333 0-500-67 0-139 0-206 0 0 167 0 333 0 500-33 0-67 0-100 0 0 56 0 111 0 167 33 0 67 0 100 0 0 55 0 111 0 161 6 50 22 89 56 122z" horiz-adv-x="500" />

<glyph glyph-name="inst_icon" unicode="&#xe805;" d="M500 611c-144 0-261-117-261-261 0-144 117-256 261-256 144 0 261 117 261 256 0 144-117 261-261 261z m0-422c-89 0-167 72-167 161 0 89 73 167 167 167 89 0 167-73 167-161 0-95-78-167-167-167z m211 661h-422c-161 0-289-128-289-289v-428c0-155 128-283 289-283h422c156 0 289 128 289 289v422c-6 161-133 289-289 289z m189-711c0-106-83-195-194-195h-417c-106 0-195 84-195 195v422c0 106 84 195 195 195h422c106 0 195-84 195-195v-422z m-139 422c33 0 61 28 61 61 0 34-28 61-61 61-33 0-61-27-61-61 0-39 28-61 61-61z" horiz-adv-x="1000" />

<glyph glyph-name="mobile-icon" unicode="&#xe806;" d="M688 850h500c37 0 62-25 62-62l0 0c0-38-25-63-62-63h-500c-38 0-63 25-63 63l0 0c0 37 25 62 63 62z m-625-437h1125c37 0 62-25 62-63l0 0c0-37-25-62-62-62h-1125c-38 0-63 25-63 62l0 0c0 38 25 63 63 63z m0-438h1125c37 0 62-25 62-63l0 0c0-37-25-62-62-62h-1125c-38 0-63 25-63 62l0 0c0 38 25 63 63 63z" horiz-adv-x="1250" />

<glyph glyph-name="raiting-star" unicode="&#xe807;" d="M475 819c19 37 75 37 94 0l125-250c6-13 19-25 37-25l269-38c44-6 56-56 31-87l-200-194c-12-12-18-31-12-44l44-275c6-44-38-75-75-56l-244 131c-13 6-31 6-50 0l-244-131c-37-19-81 12-75 56l44 275c0 19 0 32-13 44l-193 194c-26 31-13 81 31 87l275 38c19 0 31 12 37 25l119 250z" horiz-adv-x="1063" />

<glyph glyph-name="shopping_card" unicode="&#xe808;" d="M277 577l-59 241 0 0c0 5-4 9-4 14 0 0 0 0 0 0-9 0-9 4-14 9 0 0-4 5-4 5-5 0-5 4-10 4-4 0-9 0-13 0h-127c-28 0-46-18-46-45s18-46 46-46h90l46-182h0l14-50 0-4 0 0 122-446h546l136 500h-723z m519-409h-410l-86 318h582l-86-318z m-387-250l0 0c0 36-32 68-68 68l0 0c-36 0-68-32-68-68l0 0c0-36 32-68 68-68l0 0c36 0 68 32 68 68z m500 0l0 0c0 36-32 68-68 68l0 0c-36 0-68-32-68-68l0 0c0-36 32-68 68-68l0 0c36 0 68 32 68 68z" horiz-adv-x="1000" />

<glyph glyph-name="tw_icon" unicode="&#xe809;" d="M1244 733c-44-22-94-33-144-39 50 34 89 78 111 139-50-27-100-50-161-61-50 50-117 78-189 78-139 0-255-111-255-256 0-22 0-38 5-55-211 11-394 111-528 267-22-39-33-78-33-134 0-89 44-161 111-211-39 0-78 11-111 33v-5c0-122 83-228 206-250-23-6-45-11-67-11-17 0-33 0-45 5 34-100 123-177 239-177-83-67-200-106-316-106-23 0-39 0-61 6 111-73 244-112 388-112 467 0 723 384 723 723v39c55 27 94 72 127 127z" horiz-adv-x="1278" />

<glyph glyph-name="plus" unicode="&#xe80a;" d="M550 400q30 0 30-50t-30-50l-210 0 0-210q0-30-50-30t-50 30l0 210-210 0q-30 0-30 50t30 50l210 0 0 210q0 30 50 30t50-30l0-210 210 0z" horiz-adv-x="580" />

<glyph glyph-name="minus" unicode="&#xe80b;" d="M550 400q30 0 30-50t-30-50l-520 0q-30 0-30 50t30 50l520 0z" horiz-adv-x="580" />

<glyph glyph-name="account_login" unicode="&#xe80c;" d="M500 396c-127 0-227 100-227 227s100 227 227 227 227-100 227-227-100-227-227-227z m0 363c-77 0-136-59-136-136s59-137 136-137 136 60 136 137-59 136-136 136z m0-909l-18 0c-14 0-32 0-50 0-59 0-109 4-155 9-63 5-118 14-154 23-18 4-37 13-46 18l-31 18 0 27c9 205 204 364 450 364 245 0 450-163 459-364l0-27-23-14c-14-4-27-13-50-18-36-9-91-18-159-22-46-5-100-10-159-10-23 0-41 0-55 0l-9-4z m-359 123c32-9 82-19 141-23 45-5 95-9 150-9 23 0 36 0 50 0l18 0 18 0c14 0 32 0 50 0 55 0 109 4 155 9 59 4 109 14 141 23 0 0 0 0 0 0-28 136-182 245-364 245-182-4-336-109-359-245z" horiz-adv-x="1000" />

<glyph glyph-name="arrow-icon" unicode="&#xe80d;" d="M933-100c-50-50-150-50-200 0l-733 733 200 217 633-633 634 633 200-217-734-733z" horiz-adv-x="1667" />

<glyph glyph-name="arrow-link-left" unicode="&#xe80e;" d="M25 408l417 417 116-117-275-275h1300v-166h-1300l275-275-116-117-417 417c-33 33-33 83 0 116z" horiz-adv-x="1583" />

<glyph glyph-name="arrow-link-right" unicode="&#xe80f;" d="M1558 292l-416-417-117 117 275 275h-1300v166h1300l-275 275 117 117 416-417c34-33 34-83 0-116z" horiz-adv-x="1583" />

<glyph glyph-name="cross" unicode="&#xe810;" d="M28 687c-37 37-37 98 0 135 37 37 98 37 135 0l809-809c37-37 37-98 0-135-37-37-98-37-135 0l-809 809z m809 135c37 37 98 37 135 0 37-37 37-98 0-135l-809-809c-37-37-98-37-135 0-37 37-37 98 0 135l809 809z" horiz-adv-x="1000" />

<glyph glyph-name="icon_time-01" unicode="&#xe811;" d="M900 700h-800c-55 0-100-45-100-100v-650c0-55 45-100 100-100h800c55 0 100 45 100 100v650c0 55-45 100-100 100z m0-750h-800l0 650h0 800v-650z m-650 900c-30 0-50-20-50-50v-150c0-30 20-50 50-50s50 20 50 50v150c0 30-20 50-50 50z m0-50c0 0 0 0 0 0v25-25z m500 50c-30 0-50-20-50-50v-150c0-30 20-50 50-50s50 20 50 50v150c0 30-20 50-50 50z m0-50l0 0v25-25z m-280-750c-15 0-30 5-40 15l-165 150c-20 20-20 50-5 70 20 20 50 20 70 5l125-115 200 260c15 20 50 25 70 10 20-15 25-50 10-70l-235-300c-5-15-15-25-30-25z" horiz-adv-x="1000" />

<glyph glyph-name="like-up" unicode="&#xe812;" d="M0 364c0 35 28 71 70 71l0 0c36 0 71-29 71-71v-415c0-36-28-71-71-71l0 0c-35 0-70 28-70 71v415z m1000-28l-120-338c-14-71-70-120-141-120h-443c-49 0-85 35-85 85v415c0 14 7 28 21 28 43 29 120 57 155 113 14 21 22 49 22 85l0 183c0 35 14 56 35 56 91 0 190-70 190-162v-176h218c92 0 162-85 148-169z" horiz-adv-x="1000" />

<glyph glyph-name="filter_icon" unicode="&#xe813;" d="M4 799c8 16 25 27 44 27h952c19 0 35-11 43-27 8-17 5-37-7-51l-369-437v-390c0-16-9-31-23-40-14-9-31-10-46-2l-191 95c-16 8-26 25-26 43v294l-370 437c-12 14-14 34-7 51z m146-68l315-372c7-9 11-20 11-31v-282l95-48v330c0 11 4 22 12 31l314 372h-747z" horiz-adv-x="1048" />

<glyph glyph-name="check" unicode="&#xe814;" d="M321-104c-27-3-53 7-71 26l-224 257c-35 35-35 93 0 128 35 36 92 36 127 0l148-180 446 639c28 41 84 51 124 22 41-29 50-86 22-127l-507-727c-15-22-39-36-65-38z" horiz-adv-x="909" />

<glyph glyph-name="guide-language" unicode="&#xe815;" d="M781 538c72 0 128-57 128-129 0-71-56-128-128-128s-128 57-128 128c3 72 60 129 128 129m0 62c-106 0-190-84-190-191s84-190 190-190 191 84 191 190-84 191-191 191l0 0z m0-478c144 0 263-81 282-185-47-12-166-25-282-25-112 0-231 10-281 25 19 104 141 185 281 185m0 62c-190 0-343-121-343-275 0-59 343-59 343-59s344 0 344 59c3 150-153 275-344 275l0 0z m-328 663l-425-172c-41-16-37-75 3-87l407-135v-228c0-16 15-31 31-31s31 15 31 31v591c0 25-25 40-47 31z m-15-328l-344 115 344 141v-256z" horiz-adv-x="1125" />

<glyph glyph-name="panorama" unicode="&#xe816;" d="M306 413c50 0 94 43 94 93s-44 94-94 94-93-44-93-94 37-93 93-93z m507 437h-625c-107 0-188-81-188-187v-625c0-82 56-151 131-176 7-6 19-12 32-12 0 0 6 0 6 0 6 0 12 0 19 0h625c106 0 187 81 187 188v625c0 106-81 187-187 187z m-688-187c0 37 25 62 63 62h625c37 0 62-25 62-62v-400l-181 193c-13 13-25 19-44 19-19 0-31-6-44-19l-456-469c-12 13-25 32-25 51v625z m688-688h-500l337 344 219-238c0 0 6-6 12-6v-37c-6-38-31-63-68-63z" horiz-adv-x="1000" />

<glyph glyph-name="icon-calendar" unicode="&#xe817;" d="M500 50h300v300h-300v-300z m100 200h100v-100h-100v100z m300 500h-100v50c0 30-20 50-50 50s-50-20-50-50v-50h-400v50c0 30-20 50-50 50s-50-20-50-50v-50h-100c-55 0-100-45-100-100v-700c0-55 45-100 100-100h800c55 0 100 45 100 100v700c0 55-45 100-100 100z m0-800h-800l0 700h0 100v-50c0-30 20-50 50-50s50 20 50 50v50h400v-50c0-30 20-50 50-50s50 20 50 50v50h100v-700z" horiz-adv-x="1000" />

<glyph glyph-name="map-city" unicode="&#xe818;" d="M355-150c0 0 0 0 0 0-14 0-23 4-32 9-9 5-18 14-23 23-14 18-32 50-54 82-96 145-237 363-251 500-4 104 28 200 96 272 68 73 164 114 264 114 95 0 191-41 259-114 68-72 100-168 95-268v0c-9-163-163-386-254-518-19-27-37-55-46-68-4-9-13-18-23-23-9-5-18-9-31-9z m-23 77c0 0 0 0 0 0 0 0 0 0 0 0z m23 832c-78 0-146-32-200-86-32-37-73-100-64-200 9-118 150-332 232-459 13-19 23-32 32-50 9 13 18 22 27 36 82 118 227 332 241 473 4 77-18 145-73 200-50 54-123 86-195 86z m0-404c-87 0-155 68-155 154s68 155 155 155c86 0 154-68 154-155s-68-154-154-154z m0 213c-37 0-64-27-64-59 0-36 27-63 64-63s63 27 63 63c0 32-27 59-63 59z" horiz-adv-x="727" />

<glyph glyph-name="eye-close" unicode="&#xe819;" d="M1267 278c16-28 11-61-11-78-28-17-62-11-78 11l-50 67c-50-45-106-89-172-122 0 0 5-6 5-6l67-117c16-27 5-61-22-77-28-17-62-6-78 22l-67 116c-5 6-5 12-5 17-45-17-89-28-139-33 0 0 0 0 0-6v-166c0-34-23-56-56-56s-55 22-55 56v166c0 0 0 0 0 6-50 5-95 16-139 33 0-5-6-11-6-17l-67-116c-16-28-50-34-77-22-28 16-34 50-23 77l67 117c0 6 6 6 6 6-67 38-123 83-173 122l-50-67c-16-28-50-33-77-11-28 17-34 50-11 78l55 78c0 0 6 5 6 5-34 39-56 67-61 72l-12 28 23 33c11 17 266 356 600 356 333 0 589-339 600-356l22-33-22-33c-6-6-23-34-61-72 0 0 5-6 5-6l56-72z m-117 183c-67 78-261 278-483 278-223 0-417-200-484-278 67-78 261-278 484-278 222 0 416 200 483 278z" horiz-adv-x="1333" />

<glyph glyph-name="minus-1" unicode="&#xe81a;" d="M1000 350l0 0c0-43-29-71-71-71h-858c-42 0-71 28-71 71l0 0c0 43 29 71 71 71h858c42 0 71-28 71-71z" horiz-adv-x="1000" />

<glyph glyph-name="non-eye-icon" unicode="&#xe81b;" d="M113 219c-57 56-94 100-100 112-13 19-19 50 0 75 12 13 68 94 162 169 94 81 225 163 375 188 31 6 63-19 69-50 6-38-19-69-50-69-119-19-225-88-313-156-50-50-87-88-112-119 12-19 31-38 56-63 25-25 25-62 0-87-25-25-62-25-87 0z m1137 150c0-19-6-31-12-44-13-12-82-106-188-187-106-82-256-176-425-176-75 0-150 19-219 44-6 7-18 13-25 19l-162-163c-25-25-56-25-81 0s-25 57 0 82l887 887c25 25 56 25 81 0s25-56 0-81l-112-112c137-94 231-213 244-232 6-6 12-18 12-37z m-144 0c-37 44-106 112-193 175-7 0-7 6-7 6l-131-131c6-19 13-38 13-56 0-94-75-169-169-169-19 0-38 6-56 12l-82-81c50-19 100-31 150-31 125 0 250 69 344 144 56 50 106 100 131 131z m-681 37l-6-87 244 244-82 0c-81-7-150-75-156-157z" horiz-adv-x="1250" />

<glyph glyph-name="open-new-window" unicode="&#xe81c;" d="M417 817h-250c-92 0-167-75-167-167v-633c0-92 75-167 167-167h633c92 0 167 75 167 167v250h-125v-250c0-25-17-42-42-42h-633c-25 0-42 17-42 42v633c0 25 17 42 42 42h250v125z m566 33v-100-242h-100v150l-400-391-66 75 408 408h-183v100h241 100z" horiz-adv-x="1000" />

<glyph glyph-name="plus-1" unicode="&#xe81d;" d="M1000 350c0-43-29-71-71-71h-358v-358c0-42-28-71-71-71s-71 29-71 71v358h-358c-42 0-71 28-71 71s29 71 71 71h358v358c0 42 28 71 71 71s71-29 71-71v-358h358c42 0 71-28 71-71z" horiz-adv-x="1000" />

<glyph glyph-name="eye-open" unicode="&#xe81e;" d="M1071 350c0-121-92-214-214-214s-214 93-214 214c0 121 93 214 214 214s214-93 214-214z m-214-500c-428 0-757 436-771 457l-29 43 29 43c14 21 343 457 771 457 429 0 757-436 772-457l28-43-28-43c-15-21-343-457-772-457z m-621 500c85-100 335-357 621-357 286 0 536 257 622 357-86 100-336 357-622 357-286 0-536-257-621-357z" horiz-adv-x="1714" />

<glyph glyph-name="icon-1-concierge-about" unicode="&#xe81f;" d="M728 715c0 30-8 55-25 70-33 30-95 65-213 65s-180-35-212-65c-18-15-25-37-25-70v-115c0 0 0-2 0-5 0-140 107-255 237-255s238 115 238 255c0 3 0 5 0 5v115z m-425 0c0 15 2 28 7 33 23 20 73 52 180 52s158-32 180-52c5-5 8-15 8-33v-65h-375v65z m375-120c0-112-85-205-188-205s-187 93-187 205c0 3 375 3 375 0z m-175-520c0-15-10-25-25-25s-25 10-25 25 10 25 25 25 25-10 25-25z m-25-75c-15 0-25-10-25-25s10-25 25-25 25 10 25 25-10 25-25 25z m500-83c-5-20-170-55-238-60-62-5-122-5-162-7-23 0-65 0-70 0 0 0-58 0-80 0-40 0-103 2-163 7-70 5-197 15-237 63 0 0 0 7 0 7 0 206 212 373 470 373 125 0 245-37 337-110l0 0c93-70 143-162 143-260 0 0 0-10 0-13z m-683 98c0 68 40 130 100 158l155 72c-17 5-35 5-52 5-225 0-410-137-420-308 5-2 17-7 35-12 37-10 172-25 180-25l2 110z m633-73c-5 78-48 153-123 211-47 37-107 65-170 80l0 0-217-103c-45-20-73-65-73-112v-113c33-3 63-3 85-3s78 0 78 0c2 0 45 0 67 0 40 0 100 3 160 8 65 5 185 27 193 32z" horiz-adv-x="1000" />

<glyph glyph-name="icon-2-license-about" unicode="&#xe820;" d="M850 850h-700c-27 0-50-22-50-50v-900c0-28 23-50 50-50h700c28 0 50 22 50 50v900c0 28-22 50-50 50z m0-950h-700l0 900h0 700v-900z m-150 725h-400c-15 0-25-10-25-25s10-25 25-25h400c15 0 25 10 25 25s-10 25-25 25z m-2-562l-80 115c22 25 35 60 35 95 0 82-68 150-150 150s-150-68-150-150c0-35 12-70 35-95l-80-115c-5-5-5-13 0-20 5-5 10-8 17-8l68 15 12-63c3-7 8-12 15-12 0 0 3 0 3 0 7 0 12 2 15 10l67 128 68-128c2-5 10-10 15-10 0 0 2 0 2 0 8 0 13 7 15 12l13 63 67-15c8-2 15 3 18 8-3 7-3 15-5 20z m-198 312c55 0 100-45 100-100 0-55-45-100-100-100-55 0-100 45-100 100 0 55 45 100 100 100z m-75-332l-7 32c0 5-3 8-8 10-5 3-7 3-12 3l-40-10 52 75c18-13 38-23 60-28l-45-82z m178 47c-5 0-10 0-13-2-5-3-7-8-7-10l-8-35-45 85c23 5 43 15 60 27l53-75-40 10z" horiz-adv-x="1000" />

<glyph glyph-name="icon-3-customer-tour-about" unicode="&#xe821;" d="M495 370l13-7 12 7c11 5 267 145 267 328 0 86-66 152-152 152-54 0-99-28-127-68-28 40-74 68-127 68-87 0-153-66-153-152 0-183 257-323 267-328z m-114 429c48 0 86-33 99-76 2-13 12-25 28-25l0 0c15 0 25 12 28 25 10 43 50 76 99 76 58 0 101-43 101-101 0-132-180-246-228-277-49 28-229 142-229 277 0 58 43 101 102 101z m614-459c-8 8-15 15-25 20-11 5-21 8-31 8s-20 0-30-5c-10-3-18-10-28-15l-153-145c-2 10-7 18-15 25-7 10-18 18-28 23-33 15-78 8-119 3-23-5-46-5-68-5-11 2-21 7-31 12-33 15-76 36-160 15-35-10-68-25-96-50v23c0 7-3 15-8 20-5 5-13 7-20 7h-155c-8 0-15-2-20-7-5-3-8-8-8-15v-363c0-8 3-16 8-21s12-10 20-10h155c7 0 15 3 20 8s8 12 8 20v13c50-13 137-28 203-28 84 0 188 20 251 51 109 50 277 243 325 302 15 15 25 35 25 58s-5 38-20 56z m-317-175c-3-5-5-10-8-15-23-33-183-92-251-87-8 0-15-2-20-7-6-5-11-13-11-21 0-7 3-15 8-20 5-5 13-10 20-10h13c74 0 218 46 272 94l220 205c5 5 11 8 18 5 3 0 8 0 10-2 3-3 5-3 8-5 5-5 8-10 8-18 0-8-3-13-8-18l-3-2c-20-23-203-241-307-287-58-26-152-46-231-46-71 0-172 23-203 31v188c15 17 59 63 109 73 66 15 97 0 125-13 12-7 28-12 43-15 30-2 58 0 86 5 31 5 71 10 89 3 3-3 8-5 8-8 2-2 5-7 5-10 2-8 2-15 0-20z m-523 56v-308h-99v308h99z" horiz-adv-x="1015" />

<glyph glyph-name="shopping_card-full" unicode="&#xe822;" d="M304 67l-174 653h-86c-22 0-44 21-44 43s22 44 44 44h121c22 0 35-13 44-35l0 0 56-226c0 0 265 0 335 0 9 0 17-9 17-18 5-17 13-39 18-52 4-9 0-17-9-17h-339l13-44c187-13 304-113 504-91 0 0 66 9 87 9 5 0 5-5 5-5l-70-261h-522z m22-87c-35 0-65-30-65-65s30-65 65-65 65 30 65 65-30 65-65 65z m478 0c-34 0-65-30-65-65s31-65 65-65 66 30 66 65-31 65-66 65z" horiz-adv-x="1130" />

<glyph glyph-name="phone-icon" unicode="&#xe823;" d="M518 840c-2 0-7 0-10 0-13 0-26-3-26-27 0-18 18-21 34-23 5 0 10 0 16-3 134-21 226-66 289-145 21-26 37-55 53-89 8-24 16-48 23-74 6-26 11-55 16-84 0-5 0-8 0-13 0-21-2-45 27-45 28 0 26 24 26 42 0 3 0 8 0 11-3 231-203 439-429 450 0 0-3 0-3 0 0 0-2 0-2 0-6-3-8-3-14 0z m272-419c0-18 2-39 31-34 21 3 21 16 21 31 0 6 0 11 0 16 0 142-118 266-268 284-3 0-6 0-8 3-21 5-48 11-50-18-3-27 18-29 37-32 5 0 8 0 13-3 150-34 200-86 224-231 0-5 0-11 0-16z m-85-3c24 6 24 24 24 43 0 71-74 144-145 142-16 0-34 0-37-16-7-24 11-29 27-32l2 0c64-8 95-42 100-105 6-18 14-32 29-32z m71-558c74 0 164 72 187 143 24 60-16 89-55 118-5 3-8 5-13 11-21 18-45 34-66 47-8 5-18 13-26 18-61 48-119 48-163-23-24-42-64-42-100-24-106 50-187 121-237 229-21 45-21 92 29 124 23 15 55 37 50 79-6 50-124 221-174 236-21 8-42 8-63 0-113-36-163-134-116-242 132-331 374-560 697-702 11-6 24-8 35-8 7-3 13-3 15-6z" horiz-adv-x="974" />

<glyph glyph-name="food" unicode="&#xe824;" d="M1032 529h-993c-10 0-21 3-25 10-7 7-10 18-7 29 22 161 157 282 318 282h429c160 0 300-121 317-282 0-11-3-22-7-29-10-7-21-10-32-10z m-950 71h907c-32 104-128 179-239 179h-429c-110 0-207-75-239-179z m168 143h36v-72h-36v72z m179-36h35v-71h-35v71z m214 36h36v-72h-36v72z m178-36h36v-71h-36v71z m143-464h-857c-61 0-107 46-107 107s46 107 107 107h857c61 0 107-46 107-107s-46-107-107-107z m-857 143c-21 0-36-15-36-36s15-36 36-36h857c22 0 36 15 36 36s-14 36-36 36h-857z m643-536h-429c-160 0-300 121-317 282 0 11 3 22 7 29s18 10 25 10h996c11 0 22-3 29-10 7-7 10-18 7-29-18-161-157-282-318-282z m-668 250c32-104 129-179 239-179h429c111 0 207 75 239 179h-907z" horiz-adv-x="1071" />

<glyph glyph-name="time-duration" unicode="&#xe825;" d="M720 220c-15-25-45-30-70-20l-175 100c0 0-5 5-5 5 0 0-5 5-5 5 0 0-5 5-5 5 0 5-5 5-5 10 0 0 0 5 0 5 0 5 0 5 0 10v210c0 30 20 50 50 50s50-20 50-50v-170l155-90c15-15 25-45 10-70z m-215 530c-220 0-400-180-400-400s180-400 400-400 400 180 400 400-180 400-400 400m0 100c275 0 500-225 500-500s-225-500-500-500-500 225-500 500 225 500 500 500l0 0z" horiz-adv-x="1000" />

<glyph glyph-name="hotel-tranfers" unicode="&#xe826;" d="M1100 257c15-14 15-37 0-51l-185-186-52 52 122 122h-244v75h244l-122 122 52 52 185-186z m-767 589c4 4 11 4 15 0l19-37c0-3 3-3 7-3l41-8c7 0 7-7 4-11l-30-30c-4 0-4-3-4-7l8-41c0-7-8-11-11-7l-38 18c-3 0-3 0-7 0l-37-18c-7-4-11 0-11 7l7 37c0 4 0 4-3 8l-30 29c-4 4-4 11 4 11l40 8c4 0 4 4 8 4l18 40z m-333-218h263v-278h141v278h263v-778h-263v259h-141v-259h-263v778z m74-74v-630h115v222c0 23 15 37 37 37h215c22 0 37-14 37-37v-222h115v630h-115v-241c0-22-15-37-37-37h-215c-22 0-37 15-37 37v241h-115z" horiz-adv-x="1111" />

<glyph glyph-name="metro-tickets" unicode="&#xe827;" d="M500-150c-275 0-500 225-500 500s225 500 500 500 500-225 500-500-225-500-500-500z m0 944c-244 0-444-200-444-444s200-444 444-444 444 200 444 444-200 444-444 444z m-106-450l-22-188h-94l61 388 158-225 159 225 61-388h-95l-22 188-100-152-106 152z" horiz-adv-x="1000" />

<glyph glyph-name="private-car" unicode="&#xe828;" d="M409 55c0-37-32-69-68-69s-68 32-68 69 32 68 68 68c36 0 68-32 68-68z m887 68c-37 0-69-32-69-68s32-69 69-69 68 32 68 69-32 68-68 68z m204-87c-9-104-95-186-204-186-105 0-191 82-200 182h-555c-14-100-95-182-200-182-109 0-195 82-205 186-77 19-136 91-136 178v227c0 227 182 409 409 409h314c132 0 259-50 354-145l219-219c204-22 340-77 340-272 0-87-59-155-136-178z m-1045 19c0 63-50 113-114 113s-114-50-114-113c0-64 50-114 114-114s114 50 114 114z m954 0c0 63-50 113-113 113s-114-50-114-113c0-64 50-114 114-114s113 50 113 114z m137 159c0 91-19 159-278 182h-222c-28 0-46 18-46 45s18 45 46 45h118l-155 155c-77 77-182 118-291 118h-309c-159 0-291-118-313-273h677c27 0 45-18 45-45s-18-45-45-45h-682v-182c0-41 27-73 59-87 32 78 105 132 191 132 91 0 164-59 191-136h573c27 77 104 136 191 136s159-54 190-132c32 14 60 46 60 87z" horiz-adv-x="1636" />

<glyph glyph-name="russian-visa-pasport" unicode="&#xe829;" d="M750-150h-667c-47 0-83 36-83 83v834c0 47 36 83 83 83h667c47 0 83-36 83-83v-834c0-47-36-83-83-83z m-667 944c-16 0-27-11-27-27v-834c0-16 11-27 27-27h667c17 0 28 11 28 27v834c0 16-11 27-28 27h-667z m556-666h-445c-16 0-27 11-27 28s11 27 27 27h445c17 0 28-11 28-27s-11-28-28-28z m-83-139h-278c-17 0-28 11-28 28s11 27 28 27h278c16 0 27-11 27-27s-11-28-27-28z m-139 722c-123 0-223-100-223-222s100-222 223-222 222 100 222 222-100 222-222 222z m164-194h-84c-5 41-16 86-39 130 0 3-2 3-2 6 63-17 113-70 125-136z m-170-159c0 3-3 3-3 6-16 25-36 58-41 97h77c-5-42-22-78-33-103z m-47 159c5 39 25 72 42 97 0 3 2 3 2 5 14-25 28-61 34-102h-78z m-3 127c-30-41-47-86-53-127h-55c11 61 53 108 108 127z m-108-183h55c6-42 25-86 53-128-55 20-97 67-108 128z m203-133c0 3 2 3 2 5 23 45 36 86 39 131h84c-12-70-62-122-125-136z" horiz-adv-x="833" />

<glyph glyph-name="tickets-to-museums" unicode="&#xe82a;" d="M1352-150l0 0h-1242c-60 0-110 50-110 114v242l32 9c64 23 105 83 105 151s-41 132-105 155l-32 9v210c0 64 50 110 110 110l0 0h1242c59 0 109-50 109-114v-210l-32-9c-64-23-105-82-105-151s41-132 105-155l32-9v-242c0-32-13-60-32-83-23-18-50-27-77-27z m-1261 292v-178c0-14 10-23 19-23h1242l0 0c4 0 9 0 9 5 4 4 4 9 4 14v178c-82 41-137 128-137 228 0 96 55 183 137 224v150c0 14-9 23-18 23h-1237l0 0c-9 0-19-9-19-23v-150c83-41 137-128 137-229 0-91-54-178-137-219z m503 73h-183c-27 0-46 19-46 46s19 46 46 46h183c27 0 45-19 45-46s-18-46-45-46z m228 183h-411c-27 0-46 18-46 46s19 45 46 45h411c27 0 46-18 46-45s-19-46-46-46z m183-91h91v-92h-91v92z m0 365h91v-91h-91v91z m0-183h91v-91h-91v91z m0-365h91v-91h-91v91z" horiz-adv-x="1461" />

<glyph glyph-name="transfer-airport" unicode="&#xe82b;" d="M867 850h-734c-73 0-133-60-133-133v-367c0-73 60-133 133-133h334v-334c0-20 13-33 33-33s33 13 33 33v334h334c73 0 133 60 133 133v367c0 73-60 133-133 133z m66-500c0-37-30-67-66-67h-734c-36 0-66 30-66 67v367c0 36 30 66 66 66h734c36 0 66-30 66-66v-367z m-166 233h-534c-20 0-33 14-33 34s13 33 33 33h534c20 0 33-13 33-33s-13-34-33-34z m-550 34h16l0 0h-16z m450-200h-334c-20 0-33 13-33 33s13 33 33 33h334c20 0 33-13 33-33s-13-33-33-33z m-350 33h16l0 0h-16z" horiz-adv-x="1000" />

<glyph glyph-name="upgrade-private-car" unicode="&#xe82c;" d="M1074 839c15 15 37 15 52 0l185-185-52-52-122 122v-244h-74v244l-122-122-52 52 185 185z m-741-822c0-30-26-56-55-56s-56 26-56 56 26 55 56 55c29 0 55-26 55-55z m723 55c-30 0-56-26-56-55s26-56 56-56 55 26 55 56-26 55-55 55z m166-70c-7-85-78-152-166-152-86 0-156 67-163 148h-452c-11-81-78-148-163-148-89 0-159 67-167 152-63 15-111 74-111 144v186c0 185 148 333 333 333h256c107 0 211-41 289-119l178-177c166-19 277-63 277-223 0-70-48-126-111-144z m-852 15c0 52-40 92-92 92s-93-40-93-92c0-52 41-93 93-93s92 41 92 93z m778 0c0 52-41 92-92 92s-93-40-93-92c0-52 41-93 93-93s92 41 92 93z m111 129c0 74-15 130-226 148h-181c-22 0-37 15-37 38s15 37 37 37h96l-126 125c-63 63-148 97-237 97h-252c-129 0-237-97-255-222h552c22 0 37-15 37-37s-15-38-37-38h-556v-148c0-33 22-59 48-70 26 63 85 107 156 107 74 0 133-48 155-111h467c22 63 85 111 156 111s129-44 155-107c26 11 48 37 48 70z" horiz-adv-x="1333" />

<glyph glyph-name="upgrade-train-tickets" unicode="&#xe82d;" d="M603 193h-226c-17 0-31-3-46-12l-20 69h263c17 0 29 11 29 29s-12 28-29 28c-111 3-205 14-291 49l-52 183c-17 51-62 82-114 82-11 0-23 0-31-5-63-17-97-83-80-143l120-414c8-29 25-52 48-66l0 0h3c17-9 34-14 54-17v-126h29 29v114h57 200 57v-114h28 29v114h29c11 0 20 3 28 9 17 8 29 28 29 48v29c0 80-63 143-143 143z m-314-120l0 0c0-6-3-12-6-14l0 0c-6-9-14-15-23-20-3 0-6-3-9-3-20-6-42 0-57 14-8 6-14 17-17 26l-117 414c-3 14-3 31 6 46s20 23 34 28c6 0 11 3 17 3 9 0 20-3 29-8 14-9 23-20 28-35l117-405c0-18 3-35-2-46z m400-52h-58-80-211c0 3-3 9-6 12 17 26 20 60 12 91l0 0c8 6 20 12 28 12h229c46 0 83-35 86-80 0-3 0-6 0-6v-29z m-86 635v34l80 17v-166h-37v126l-43-11z m123-77c8-6 14-12 20-15s11-3 14-3c6 0 11 3 11 9 0 3-2 6-5 9-3 2-9 5-17 8-6 3-9 3-15 6s-8 6-11 11c-3 6-6 9-6 17 0 9 3 18 12 23 8 6 17 9 28 9 9 0 17-3 26-6 8-3 14-6 20-11l-12-23c-5 3-8 8-14 11s-11 3-17 3c-3 0-6 0-9-3-2 0-2-3-2-5s2-6 5-9c6-3 12-3 17-9 6-2 12-5 15-5 5-3 8-6 11-12 3-3 6-8 6-17 0-11-3-20-12-26-5-5-17-8-28-8s-23 3-32 6-17 8-25 14l20 26z m88 68h20v37h35v-37h20v-28h-20v-78h-35v78h-20v28z m-11 203h-143c-126 0-229-103-229-229s103-228 229-228h143c126 0 228 103 228 228s-102 229-228 229z m0-400h-143c-94 0-171 77-171 171s77 172 171 172h143c94 0 171-77 171-172s-77-171-171-171z" horiz-adv-x="1031" />

<glyph glyph-name="visa-support-convert" unicode="&#xe82e;" d="M1000 406c0 8-3 19-8 25l-131 102v206c0 61-50 111-111 111h-500c-61 0-111-50-111-111v-206l-125-105c-8-6-14-17-14-28v-550h1000v550c0 3 0 3 0 6z m-78 8l-61-36v83l61-47z m-728 325c0 30 25 55 56 55h500c31 0 56-25 56-55v-389-3l-306-178-306 181c0 0 0 0 0 3v386z m-55-358l-58 33 58 47v-80z m805-475h-888v458l416-245 28-16 444 258v-455z m-486 444c-8 0-14 3-19 8l-97 98c-11 11-11 27 0 38s27 12 39 0l77-77 175 175c11 11 28 11 39 0s11-28 0-39l-194-195c-6-5-11-8-20-8z" horiz-adv-x="1000" />

<glyph glyph-name="email-icon" unicode="&#xe82f;" d="M1407 827c0 0 0 0 0 0l-1344 0 634-634c20-20 60-20 80 0l630 634c0 0 0 0 0 0z m-1387-44c0 0 0 0 0 0l0-860 430 430-430 430c0 0 0 0 0 0z m37-906c3 0 3 0 0 0l1346 0-430 430-156-157c-24-23-50-33-84-33-30 0-60 13-83 33l-160 160-433-433c0 0 0 0 0 0z m960 473l430-430v860l-430-430z" horiz-adv-x="1467" />

<glyph glyph-name="icon-geo-book" unicode="&#xe830;" d="M646 571c-39 42-92 65-146 65-57 0-111-25-150-65-37-40-54-94-50-151 7-76 84-197 136-277-17-4-33-9-47-16-40-20-46-43-46-56s6-35 46-55c30-15 68-23 111-23s81 8 111 23c40 20 46 43 46 55s-6 36-46 56c-12 7-28 12-45 16 50 73 127 191 133 277 4 57-16 111-53 151z m-17-500c0-7-9-18-30-30-26-12-62-20-99-20-37 0-73 8-99 20-21 12-30 23-30 30s9 19 30 30c15 8 32 13 52 16l0 0c11-17 20-31 26-41 1-5 5-7 8-9 4-1 7-3 12-3 0 0 0 0 0 0 4 0 8 2 11 3 4 2 7 4 9 9 5 10 15 24 27 41 18-3 35-8 50-16 24-11 33-22 33-30z m41 352c-6-86-96-217-139-280l-5-9c-10-14-19-27-25-37-7 12-17 27-28 46l-2 3c-47 71-132 204-140 277-4 48 10 94 42 128 33 36 78 56 128 56 48 0 93-20 125-54 31-36 47-82 44-130z m-131 106c-15 0-29-8-39-18-10 12-24 18-39 18-30 0-54-25-54-56 0-62 79-109 86-112l7-4 7 4c2 0 86 49 86 112 0 31-24 56-54 56z m-39-138c-17 10-63 45-63 80 0 15 10 26 24 26 12 0 20-8 23-20 2-7 9-13 16-13s14 6 16 13c3 12 13 20 23 20 14 0 24-11 24-26 0-15-12-44-63-80z" horiz-adv-x="1000" />

<glyph glyph-name="icon-card-book" unicode="&#xe831;" d="M729 536h-458c-31 0-57-26-57-57v-272c0-31 26-57 57-57h458c31 0 57 26 57 57v272c0 31-26 57-57 57z m28-329c0-16-13-28-28-28h-458c-15 0-28 12-28 28v157h514v-157z m0 186h-514v43h514v-43z m0 71h-514v15c0 15 13 28 28 28h458c15 0 28-13 28-28v-15z m-371-200c0 9 5 15 14 15h171c9 0 15-6 15-15s-6-14-15-14h-171c-9 0-14 6-14 14z m-72-43c25 0 43 19 43 43s-18 43-43 43-43-18-43-43 19-43 43-43z m0 58c9 0 15-6 15-15s-6-14-15-14-14 6-14 14 6 15 14 15z" horiz-adv-x="1000" />

<glyph glyph-name="icon-user-book" unicode="&#xe832;" d="M507 346c76 0 139 61 139 138 0 76-62 139-139 139-76 0-138-62-138-139 0-77 62-138 138-138z m0 247c60 0 110-49 110-110 0-60-48-110-110-110-60 0-110 48-110 110 0 61 50 110 110 110z m0-273c-138 0-250-89-250-199 0-42 250-42 250-42s250 0 250 42c0 110-111 199-250 199z m204-196c-21-5-50-10-81-11-30-3-61-4-84-4-12 0-22 0-27 0-3 0-6 0-8 0l-1 0 0 0h0 0 0 0 0 0l0 0-1 0c-2 0-5 0-8 0-7 0-15 0-27 0-23 0-54 1-84 4-31 3-60 7-81 11-9 2-13 5-18 6 6 84 98 161 222 161s210-77 216-161c-5-1-10-3-18-6z m-270 327c-2 12 6 20 18 20 7 0 12-5 15-12 6-13 17-22 32-22 14 0 25 9 31 22 3 7 9 12 16 12 11 0 21-10 17-20-9-27-34-48-66-48-28 1-54 21-63 48z" horiz-adv-x="1000" />

<glyph glyph-name="on-motorboat-icon" unicode="&#xe83e;" d="M1313 498h-122l-97 153c-78 125-215 199-360 199h-70c-86 0-156-70-156-156v-43-153h-371c-28 0-51-11-67-35-15-23-15-50-7-74l58-137c35-86 121-144 215-144h691c188 0 336 152 336 336 4 31-19 54-50 54z m-649 274h70c122 0 231-63 297-164l71-110h-204l-101 196h-211c0 43 35 78 78 78z m-78-156h160l63-118h-28-39-156v118z m445-430h-695c-55 0-109 31-137 78h699v78h-730l-31 78h371 234 39 157 351c-12-132-125-234-258-234z m371-188c0-82-66-148-148-148-43 0-82 19-109 51-28-32-67-51-110-51-43 0-82 19-109 51-28-32-67-51-110-51-43 0-82 19-109 51-27-32-66-51-109-51-43 0-82 19-110 51-27-32-66-51-109-51-43 0-82 19-109 51-28-32-67-51-110-51-82 0-148 66-148 148 0 24 15 40 39 40s39-16 39-40c0-39 31-70 70-70 39 0 71 31 71 70 0 0 0 0 0 0 0 24 15 40 39 40 0 0 0 0 0 0s0 0 0 0c23 0 39-16 39-40 0 0 0 0 0 0 0-39 31-70 70-70 39 0 70 31 70 70 0 24 16 40 39 40 0 0 0 0 0 0s0 0 0 0c24 0 39-16 39-40 0-39 32-70 71-70 39 0 70 31 70 70 0 0 0 0 0 0 0 24 16 40 39 40 0 0 0 0 0 0s0 0 0 0c24 0 39-16 39-40 0 0 0 0 0 0 0-39 31-70 70-70 40 0 71 31 71 70 0 0 0 0 0 0 0 24 15 40 39 40 0 0 0 0 0 0s0 0 0 0c23 0 39-16 39-40 0 0 0 0 0 0 0-39 31-70 70-70 39 0 71 31 71 70 0 0 0 0 0 0 0 24 15 40 39 40 0 0 0 0 0 0s0 0 0 0c23 0 39-16 39-40 0 0 0 0 0 0 0-39 31-70 70-70 39 0 70 31 70 70 0 24 16 40 39 40s39-16 39-40z" horiz-adv-x="1406" />

<glyph glyph-name="on-foot-icon" unicode="&#xe83f;" d="M623 407l-103 63c-13 7-23 20-27 30l-33 77c-13 30-43 46-73 40l-150-17c-7 0-14-3-24-7l-126-60c-20-10-37-30-40-53l-27-180c-3-23 7-50 27-67 36-23 83-6 93 34l43 133 7-130c0-13-3-23-7-33l-33-70c-7-10-13-20-23-27l-87-57c-20-13-30-33-30-53-3-80 77-117 133-80l147 100 0 0 10 10 37 73 76-213c10-23 27-40 54-47 83-16 133 57 110 120l-107 280c0 4-3 10-3 14l-7 36 90-46c20-10 47-14 67 0 56 30 53 103 6 130z m-43-70l-140 73c-27 13-60-10-57-40l17-103c0-4 0-4 3-7l110-290c4-10 0-23-10-27-13-6-26 0-30 14l-96 266c-10 30-57 34-70 4l-57-117c-3-7-7-10-13-13l-130-90c-10-7-20-4-27 6-3 7 0 17 7 20l100 67c6 3 10 10 13 17l57 116c3 7 3 14 3 20l-10 210c0 24-27 40-50 34l-3 0c-4 0-7-4-14-7l-43-27-7-13-3-10-37-113 17 123c3 13 10 23 20 30l107 53c3 4 6 4 13 4l120 13c17 3 33-7 40-23l37-80c3-7 6-14 13-17l130-80c3-3 7-7 3-10-3-3-10-7-13-3z m-303 293c-64 0-110 50-110 110s46 110 110 110 110-50 110-110-50-110-110-110z m0 153c-27 0-44-20-44-43s20-43 44-43 43 20 43 43-20 43-43 43z" horiz-adv-x="667" />

<glyph glyph-name="log_out_icon" unicode="&#xe872;" d="M600-150h-350c-140 0-250 110-250 250v500c0 140 110 250 250 250h350c30 0 50-20 50-50s-20-50-50-50h-350c-85 0-150-65-150-150v-500c0-85 65-150 150-150h350c30 0 50-20 50-50s-20-50-50-50z m385 535c20-20 20-55 0-75l-265-260-75 75 175 175h-420v100h420l-175 175 75 75 265-265z" horiz-adv-x="1000" />
</font>
</defs>
</svg>
